new Date(today.getTime() + loop_time * loop_range)) { People who are born with Saturn as the ruling planet are disciplined and are hard workers. loop_range = seconds['day']; years: 365.25*1000*60*60*24, months: 30.41666667*1000*60*60*24, weeks: 7*1000*60*60*24, days: 1000*60*60*24, hours: 1000*60*60, minutes: 1000*60, seconds: 1000 3. var abs_diff = Math.abs(diff); He is best known for being a Rapper. Frankie Cutlass is single. today = new Date(today.getTime() + loop_time * loop_range); } } start2.setFullYear(today.getFullYear()); } Net worth is calculated by adding anything of value and then subtracting all of the liabilities. LIVE from “The Monday Night Freestyle Classics” Every Monday’s 8pm LIVE FB DJ Frankie Cutlass Zodiac Sign: Frankie Cutlass is a Capricorn. He has daughters named Faith and Karisma. His music took a turn for the religious in 2004 with the release of the Christian-themed album New Wine. if(abs_diff > seconds[display[i]] || show_zero) { if(!expire) { View latest updates on Frankie Cutlass’s earnings, income, bio, and facts below ⤵. var count = Math.floor(abs_diff / seconds[display[i]]); President Woodrow Wilson was pictured on the front. //show_zero = true; if(abs_diff > seconds[display[i]] || show_zero) { Frankie's interest had expanded into production as well as leading him to work with popular artists such as Notorious B.I.G, Uncle Luke, Fat Joe, Shaggy, Rayvon, Akinyele, Mad Lion and veteran Latin Music artists such as Tito Nieves on his smash "I Like It Like That"[6] 1997 saw the release of his second album, Politics & Bullshit, paying tribute to old-school rap and featuring artists such as Redman, Busta Rhymes, Mobb Deep, Fat Joe, Smif-n-Wessun, Sadat X, Biz Markie, Craig G, Kool G Rap, M.O.P., Keith Murray, Heltah Skeltah, the Lost Boyz and Roxanne Shanté. You can also find out who is Frankie Cutlass dating now and celebrity dating histories at CelebsCouples. Born in New York, United States, on January 16, 1971, Frankie Cutlass is best known for being a rapper. Frankie’s next birthday is in Frankie Cutlass, born Frank Malave, was born in New York City’s Spanish Harlem. var today = new Date(); var delimiter = ' '; CelebsMoney has recently updated Frankie Cutlass’s net worth. Warning Warning Warning The Boss is in the building. while(start2 < today) { //show_zero = true; var loop_range = ''; !loop_range) { } This page is updated often with latest details about Frankie Cutlass. } diff = (start2 - today); var increment = 1 * '-1'; We will continue to update information on Frankie Cutlass’s parents. The youngest of nine children, he was raised in the same housing development as actor and singer-songwriter Marc Anthony at Metro North Plaza Houses. if(diff < 0) { Like many famous people and celebrities, Frankie Cutlass keeps his personal life private. The 49-year-old rapper was born in New York, United States. text = ' '; } Submit a correction and help us fix it. } else if(increment > 0) { var count = Math.floor(abs_diff / seconds[display[i]]); Frankie Cutlass was born in 1970s. – Learn who is the richest rapper in the world. The British pound is the world’s oldest currency that is still in use, dating back to the 8th century. Frankie Cutlass is part of the Baby boomers generation. According to FamousDetails, he was born in the Year of the Pig. 10. } else { The greatest overall compatibility with Capricorn is Taurus and Cancer. if(! } 4. He has been alive for 18,190 days or 436,561 hours. If you see something that doesn’t look right, contact us. } Frankie Cutlass is American Rapper with an estimated net worth of $100,000 - $1M. These hippie kids protested against the Vietnam War and participated in the civil rights movement. Welcome to the Mother Night Freestyle classes. Personal: Frankie Cutlass was born in the Year of the Pig, and his birth sign is Capricorn. Evil Twins)" PERFORMER "Frankie Cutlass" FLAGS DCP INDEX 01 00:00:00 FILE "Frankie Cutlass - 1993 - The Frankie Cutlass Show [FLAC (tracks+.cue)]\04 - Wede Man (Ft. Selector).wav" WAVE TRACK 04 AUDIO TITLE "Wede Man (Ft. Selector)" PERFORMER "Frankie Cutlass" FLAGS DCP INDEX 01 00:00:00 FILE "Frankie Cutlass - 1993 - The Frankie Cutlass Show [FLAC … – Who’s the richest Rapper in the world? text += '
' + count + '
' + display[i] + (count != 1 ? loop_range = seconds['hour']; 7. } else { 's' : '') + '
' } While we don't know Frankie Cutlass birth time, but we do know his mother gave birth to his on a Saturday. Saturn is a planet of commitment and responsibility, but also restriction and delay. if(increment < 0) { } Frankie Cutlass ruling planet is Saturn. Frankie Cutlass’s life path number is 8. . The Seventies saw many women's rights, gay rights, and environmental movements. var display = ['day']; Frank Javiel Malave (born January 16, 1971), better known by his stage name Frankie Cutlass, is an American Platinum producer, DJ, rapper, musician, writer, and remixer from Harlem, New York, United States. year: 365.25*1000*60*60*24, month: 30.41666667*1000*60*60*24, week: 7*1000*60*60*24, day: 1000*60*60*24, hour: 1000*60*60, minute: 1000*60, second: 1000, 5. Puerto Rican rapper, producer and remixer known for popular singles like “Puerto Rico” and “Shake Whatcha Mama Gave Ya.” His music has been featured on the soundtracks to many popular films, including Gloria and Charlie’s Angels. Laudato Si Ad Astra Meaning, Older Whippets For Sale, Why Is Paul Mcgregor Nickname Mary, Creader 3001 Vs 319, Seth Curry Wingspan, Victor Meutelet Copine, Sony Michel Dynasty, Pastor Richard Jordan, " /> new Date(today.getTime() + loop_time * loop_range)) { People who are born with Saturn as the ruling planet are disciplined and are hard workers. loop_range = seconds['day']; years: 365.25*1000*60*60*24, months: 30.41666667*1000*60*60*24, weeks: 7*1000*60*60*24, days: 1000*60*60*24, hours: 1000*60*60, minutes: 1000*60, seconds: 1000 3. var abs_diff = Math.abs(diff); He is best known for being a Rapper. Frankie Cutlass is single. today = new Date(today.getTime() + loop_time * loop_range); } } start2.setFullYear(today.getFullYear()); } Net worth is calculated by adding anything of value and then subtracting all of the liabilities. LIVE from “The Monday Night Freestyle Classics” Every Monday’s 8pm LIVE FB DJ Frankie Cutlass Zodiac Sign: Frankie Cutlass is a Capricorn. He has daughters named Faith and Karisma. His music took a turn for the religious in 2004 with the release of the Christian-themed album New Wine. if(abs_diff > seconds[display[i]] || show_zero) { if(!expire) { View latest updates on Frankie Cutlass’s earnings, income, bio, and facts below ⤵. var count = Math.floor(abs_diff / seconds[display[i]]); President Woodrow Wilson was pictured on the front. //show_zero = true; if(abs_diff > seconds[display[i]] || show_zero) { Frankie's interest had expanded into production as well as leading him to work with popular artists such as Notorious B.I.G, Uncle Luke, Fat Joe, Shaggy, Rayvon, Akinyele, Mad Lion and veteran Latin Music artists such as Tito Nieves on his smash "I Like It Like That"[6] 1997 saw the release of his second album, Politics & Bullshit, paying tribute to old-school rap and featuring artists such as Redman, Busta Rhymes, Mobb Deep, Fat Joe, Smif-n-Wessun, Sadat X, Biz Markie, Craig G, Kool G Rap, M.O.P., Keith Murray, Heltah Skeltah, the Lost Boyz and Roxanne Shanté. You can also find out who is Frankie Cutlass dating now and celebrity dating histories at CelebsCouples. Born in New York, United States, on January 16, 1971, Frankie Cutlass is best known for being a rapper. Frankie’s next birthday is in Frankie Cutlass, born Frank Malave, was born in New York City’s Spanish Harlem. var today = new Date(); var delimiter = ' '; CelebsMoney has recently updated Frankie Cutlass’s net worth. Warning Warning Warning The Boss is in the building. while(start2 < today) { //show_zero = true; var loop_range = ''; !loop_range) { } This page is updated often with latest details about Frankie Cutlass. } diff = (start2 - today); var increment = 1 * '-1'; We will continue to update information on Frankie Cutlass’s parents. The youngest of nine children, he was raised in the same housing development as actor and singer-songwriter Marc Anthony at Metro North Plaza Houses. if(diff < 0) { Like many famous people and celebrities, Frankie Cutlass keeps his personal life private. The 49-year-old rapper was born in New York, United States. text = ' '; } Submit a correction and help us fix it. } else if(increment > 0) { var count = Math.floor(abs_diff / seconds[display[i]]); Frankie Cutlass was born in 1970s. – Learn who is the richest rapper in the world. The British pound is the world’s oldest currency that is still in use, dating back to the 8th century. Frankie Cutlass is part of the Baby boomers generation. According to FamousDetails, he was born in the Year of the Pig. 10. } else { The greatest overall compatibility with Capricorn is Taurus and Cancer. if(! } 4. He has been alive for 18,190 days or 436,561 hours. If you see something that doesn’t look right, contact us. } Frankie Cutlass is American Rapper with an estimated net worth of $100,000 - $1M. These hippie kids protested against the Vietnam War and participated in the civil rights movement. Welcome to the Mother Night Freestyle classes. Personal: Frankie Cutlass was born in the Year of the Pig, and his birth sign is Capricorn. Evil Twins)" PERFORMER "Frankie Cutlass" FLAGS DCP INDEX 01 00:00:00 FILE "Frankie Cutlass - 1993 - The Frankie Cutlass Show [FLAC (tracks+.cue)]\04 - Wede Man (Ft. Selector).wav" WAVE TRACK 04 AUDIO TITLE "Wede Man (Ft. Selector)" PERFORMER "Frankie Cutlass" FLAGS DCP INDEX 01 00:00:00 FILE "Frankie Cutlass - 1993 - The Frankie Cutlass Show [FLAC … – Who’s the richest Rapper in the world? text += '
' + count + '
' + display[i] + (count != 1 ? loop_range = seconds['hour']; 7. } else { 's' : '') + '
' } While we don't know Frankie Cutlass birth time, but we do know his mother gave birth to his on a Saturday. Saturn is a planet of commitment and responsibility, but also restriction and delay. if(increment < 0) { } Frankie Cutlass ruling planet is Saturn. Frankie Cutlass’s life path number is 8. . The Seventies saw many women's rights, gay rights, and environmental movements. var display = ['day']; Frank Javiel Malave (born January 16, 1971), better known by his stage name Frankie Cutlass, is an American Platinum producer, DJ, rapper, musician, writer, and remixer from Harlem, New York, United States. year: 365.25*1000*60*60*24, month: 30.41666667*1000*60*60*24, week: 7*1000*60*60*24, day: 1000*60*60*24, hour: 1000*60*60, minute: 1000*60, second: 1000, 5. Puerto Rican rapper, producer and remixer known for popular singles like “Puerto Rico” and “Shake Whatcha Mama Gave Ya.” His music has been featured on the soundtracks to many popular films, including Gloria and Charlie’s Angels. Laudato Si Ad Astra Meaning, Older Whippets For Sale, Why Is Paul Mcgregor Nickname Mary, Creader 3001 Vs 319, Seth Curry Wingspan, Victor Meutelet Copine, Sony Michel Dynasty, Pastor Richard Jordan, " />

Top Menu

frankie cutlass death

TITLE "Faces Of Death (Ft. How to calculate net worth: Calculating your net worth really isn’t all that hard, but it requires that you gather all the information surrounding your current assets and liabilities. setInterval(updateCountdown, 1000); But how did he get his wealth? var loop_time = 1 * ''; – What does it mean if you were born on January 16, 1971? while(start2 > new Date(today.getTime() + loop_time * loop_range)) { People who are born with Saturn as the ruling planet are disciplined and are hard workers. loop_range = seconds['day']; years: 365.25*1000*60*60*24, months: 30.41666667*1000*60*60*24, weeks: 7*1000*60*60*24, days: 1000*60*60*24, hours: 1000*60*60, minutes: 1000*60, seconds: 1000 3. var abs_diff = Math.abs(diff); He is best known for being a Rapper. Frankie Cutlass is single. today = new Date(today.getTime() + loop_time * loop_range); } } start2.setFullYear(today.getFullYear()); } Net worth is calculated by adding anything of value and then subtracting all of the liabilities. LIVE from “The Monday Night Freestyle Classics” Every Monday’s 8pm LIVE FB DJ Frankie Cutlass Zodiac Sign: Frankie Cutlass is a Capricorn. He has daughters named Faith and Karisma. His music took a turn for the religious in 2004 with the release of the Christian-themed album New Wine. if(abs_diff > seconds[display[i]] || show_zero) { if(!expire) { View latest updates on Frankie Cutlass’s earnings, income, bio, and facts below ⤵. var count = Math.floor(abs_diff / seconds[display[i]]); President Woodrow Wilson was pictured on the front. //show_zero = true; if(abs_diff > seconds[display[i]] || show_zero) { Frankie's interest had expanded into production as well as leading him to work with popular artists such as Notorious B.I.G, Uncle Luke, Fat Joe, Shaggy, Rayvon, Akinyele, Mad Lion and veteran Latin Music artists such as Tito Nieves on his smash "I Like It Like That"[6] 1997 saw the release of his second album, Politics & Bullshit, paying tribute to old-school rap and featuring artists such as Redman, Busta Rhymes, Mobb Deep, Fat Joe, Smif-n-Wessun, Sadat X, Biz Markie, Craig G, Kool G Rap, M.O.P., Keith Murray, Heltah Skeltah, the Lost Boyz and Roxanne Shanté. You can also find out who is Frankie Cutlass dating now and celebrity dating histories at CelebsCouples. Born in New York, United States, on January 16, 1971, Frankie Cutlass is best known for being a rapper. Frankie’s next birthday is in Frankie Cutlass, born Frank Malave, was born in New York City’s Spanish Harlem. var today = new Date(); var delimiter = ' '; CelebsMoney has recently updated Frankie Cutlass’s net worth. Warning Warning Warning The Boss is in the building. while(start2 < today) { //show_zero = true; var loop_range = ''; !loop_range) { } This page is updated often with latest details about Frankie Cutlass. } diff = (start2 - today); var increment = 1 * '-1'; We will continue to update information on Frankie Cutlass’s parents. The youngest of nine children, he was raised in the same housing development as actor and singer-songwriter Marc Anthony at Metro North Plaza Houses. if(diff < 0) { Like many famous people and celebrities, Frankie Cutlass keeps his personal life private. The 49-year-old rapper was born in New York, United States. text = ' '; } Submit a correction and help us fix it. } else if(increment > 0) { var count = Math.floor(abs_diff / seconds[display[i]]); Frankie Cutlass was born in 1970s. – Learn who is the richest rapper in the world. The British pound is the world’s oldest currency that is still in use, dating back to the 8th century. Frankie Cutlass is part of the Baby boomers generation. According to FamousDetails, he was born in the Year of the Pig. 10. } else { The greatest overall compatibility with Capricorn is Taurus and Cancer. if(! } 4. He has been alive for 18,190 days or 436,561 hours. If you see something that doesn’t look right, contact us. } Frankie Cutlass is American Rapper with an estimated net worth of $100,000 - $1M. These hippie kids protested against the Vietnam War and participated in the civil rights movement. Welcome to the Mother Night Freestyle classes. Personal: Frankie Cutlass was born in the Year of the Pig, and his birth sign is Capricorn. Evil Twins)" PERFORMER "Frankie Cutlass" FLAGS DCP INDEX 01 00:00:00 FILE "Frankie Cutlass - 1993 - The Frankie Cutlass Show [FLAC (tracks+.cue)]\04 - Wede Man (Ft. Selector).wav" WAVE TRACK 04 AUDIO TITLE "Wede Man (Ft. Selector)" PERFORMER "Frankie Cutlass" FLAGS DCP INDEX 01 00:00:00 FILE "Frankie Cutlass - 1993 - The Frankie Cutlass Show [FLAC … – Who’s the richest Rapper in the world? text += '

' + count + '
' + display[i] + (count != 1 ? loop_range = seconds['hour']; 7. } else { 's' : '') + '
' } While we don't know Frankie Cutlass birth time, but we do know his mother gave birth to his on a Saturday. Saturn is a planet of commitment and responsibility, but also restriction and delay. if(increment < 0) { } Frankie Cutlass ruling planet is Saturn. Frankie Cutlass’s life path number is 8. . The Seventies saw many women's rights, gay rights, and environmental movements. var display = ['day']; Frank Javiel Malave (born January 16, 1971), better known by his stage name Frankie Cutlass, is an American Platinum producer, DJ, rapper, musician, writer, and remixer from Harlem, New York, United States. year: 365.25*1000*60*60*24, month: 30.41666667*1000*60*60*24, week: 7*1000*60*60*24, day: 1000*60*60*24, hour: 1000*60*60, minute: 1000*60, second: 1000, 5. Puerto Rican rapper, producer and remixer known for popular singles like “Puerto Rico” and “Shake Whatcha Mama Gave Ya.” His music has been featured on the soundtracks to many popular films, including Gloria and Charlie’s Angels.

Laudato Si Ad Astra Meaning, Older Whippets For Sale, Why Is Paul Mcgregor Nickname Mary, Creader 3001 Vs 319, Seth Curry Wingspan, Victor Meutelet Copine, Sony Michel Dynasty, Pastor Richard Jordan,

No comments yet.

Leave a Reply

This site uses Akismet to reduce spam. Learn how your comment data is processed.